Mixkatalog
 Einloggen
Login
Passwort

Deep Dance 125 Hits: 32  

Deep Dance 125


Kurzbeschreibung:
Deep präsentiert den Deep Magic Dance 125. Mixtrix Part 2 of 3. Der Trancemix ist ein Ausschnitt aus dem Rich Walker Year Mix 2009.
 
Crew/DJ: Deep Reihe: Deep Dance Serie
Stil: Dance Erscheinungsjahr: 2010
CDs: 1 Spielzeit: 73:42
Trackliste:
Cue-Informationen:

FILE "filename.mp3" MP3
  TRACK 01 AUDIO
    INDEX 01 00:00:00
  TRACK 02 AUDIO
    INDEX 01 00:11:49
  TRACK 03 AUDIO
    INDEX 01 25:06:41
Wertung: ()  
Hinzugefügt: 6 April 2010
Bewerte als Erster diesen Mix:
RSS Feed
RSS Feed
Sprache
Deutsch Englisch Französisch
Mixsuche
Suchbegriff
Genauer Wortlaut
Alle Worte (UND)
Ein Wort (ODER)
Statistik
30199 Mixe eingetragen
28541 Tracklisten
Newsletter
E-Mail
Anmelden
Abmelden
SPONSOREN