Mixkatalog
 Einloggen
Login
Passwort

Ost-Rock Kuschel Megamix Hits: 1289  

Ost-Rock Kuschel Megamix


Kurzbeschreibung:
DJ Happy Vibes und Amiga präsentieren Schmusehits-Non-Stop im Ost-Rock Kuschel Megamix.
 
Crew/DJ: DJ Happy Vibes Reihe: Ost-Rock
Stil: Rock Erscheinungsjahr: 2009
CDs: 1 Spielzeit: 56:47
Trackliste:
Cue-Informationen:

FILE "filename.mp3" MP3
  TRACK 01 AUDIO
    INDEX 01 00:00:00
  TRACK 02 AUDIO
    INDEX 01 01:19:57
  TRACK 03 AUDIO
    INDEX 01 24:32:70
  TRACK 04 AUDIO
    INDEX 01 45:27:00
  TRACK 05 AUDIO
    INDEX 01 55:53:34
Wertung: (6)  
Hinzugefügt: 2 April 2010
RSS Feed
RSS Feed
Sprache
Deutsch Englisch Französisch
Mixsuche
Suchbegriff
Genauer Wortlaut
Alle Worte (UND)
Ein Wort (ODER)
Statistik
32432 Mixe eingetragen
30813 Tracklisten
Newsletter
E-Mail
Anmelden
Abmelden
SPONSOREN