Mixkatalog
 Einloggen
Login
Passwort

Grandmix The Millennium Edition Hits: 624  

Grandmix The Millennium Edition


Kurzbeschreibung:
Ben Liebrand präsentiert den Grandmix The Millennium Edition.
 
Crew/DJ: Ben Liebrand Reihe: Grandmix
Stil: Pop Erscheinungsjahr: 1999
CDs: 3 Spielzeit: 179:43
Trackliste:
Cue-Informationen:

FILE "filename CD 1.mp3" MP3
  TRACK 01 AUDIO
    INDEX 01 00:00:00
  TRACK 02 AUDIO
    INDEX 01 01:45:07
  TRACK 03 AUDIO
    INDEX 01 03:35:32
  TRACK 04 AUDIO
    INDEX 01 04:54:10
  TRACK 05 AUDIO
    INDEX 01 06:35:52
  TRACK 06 AUDIO
    INDEX 01 07:53:52
  TRACK 07 AUDIO
    INDEX 01 09:38:12
  TRACK 08 AUDIO
    INDEX 01 11:11:70
  TRACK 09 AUDIO
    INDEX 01 12:30:50
  TRACK 10 AUDIO
    INDEX 01 14:02:57
  TRACK 11 AUDIO
    INDEX 01 15:41:25
  TRACK 12 AUDIO
    INDEX 01 16:50:42
  TRACK 13 AUDIO
    INDEX 01 18:28:22
  TRACK 14 AUDIO
    INDEX 01 20:03:62
  TRACK 15 AUDIO
    INDEX 01 21:40:22
  TRACK 16 AUDIO
    INDEX 01 23:22:72
  TRACK 17 AUDIO
    INDEX 01 25:00:10
  TRACK 18 AUDIO
    INDEX 01 26:33:32
  TRACK 19 AUDIO
    INDEX 01 28:14:27
  TRACK 20 AUDIO
    INDEX 01 29:56:17
  TRACK 21 AUDIO
    INDEX 01 31:12:25
  TRACK 22 AUDIO
    INDEX 01 32:58:17
  TRACK 23 AUDIO
    INDEX 01 34:36:15
  TRACK 24 AUDIO
    INDEX 01 36:32:37
  TRACK 25 AUDIO
    INDEX 01 38:12:57
  TRACK 26 AUDIO
    INDEX 01 39:51:65
  TRACK 27 AUDIO
    INDEX 01 41:30:20
  TRACK 28 AUDIO
    INDEX 01 43:08:25
  TRACK 29 AUDIO
    INDEX 01 44:40:47
  TRACK 30 AUDIO
    INDEX 01 47:30:42
  TRACK 31 AUDIO
    INDEX 01 49:07:35
  TRACK 32 AUDIO
    INDEX 01 50:53:35
  TRACK 33 AUDIO
    INDEX 01 52:39:20
  TRACK 34 AUDIO
    INDEX 01 53:31:45
  TRACK 35 AUDIO
    INDEX 01 55:12:32
  TRACK 36 AUDIO
    INDEX 01 56:55:32

FILE "filename CD 2.mp3" MP3
  TRACK 01 AUDIO
    INDEX 01 00:00:00
  TRACK 02 AUDIO
    INDEX 01 01:32:17
  TRACK 03 AUDIO
    INDEX 01 03:08:17
  TRACK 04 AUDIO
    INDEX 01 04:52:12
  TRACK 05 AUDIO
    INDEX 01 06:28:10
  TRACK 06 AUDIO
    INDEX 01 08:04:30
  TRACK 07 AUDIO
    INDEX 01 09:48:37
  TRACK 08 AUDIO
    INDEX 01 11:06:72
  TRACK 09 AUDIO
    INDEX 01 13:16:60
  TRACK 10 AUDIO
    INDEX 01 14:59:32
  TRACK 11 AUDIO
    INDEX 01 16:42:67
  TRACK 12 AUDIO
    INDEX 01 18:25:72
  TRACK 13 AUDIO
    INDEX 01 20:03:50
  TRACK 14 AUDIO
    INDEX 01 21:37:57
  TRACK 15 AUDIO
    INDEX 01 23:19:17
  TRACK 16 AUDIO
    INDEX 01 24:37:25
  TRACK 17 AUDIO
    INDEX 01 26:22:37
  TRACK 18 AUDIO
    INDEX 01 28:06:40
  TRACK 19 AUDIO
    INDEX 01 29:50:37
  TRACK 20 AUDIO
    INDEX 01 31:31:22
  TRACK 21 AUDIO
    INDEX 01 33:11:50
  TRACK 22 AUDIO
    INDEX 01 34:52:15
  TRACK 23 AUDIO
    INDEX 01 36:32:02
  TRACK 24 AUDIO
    INDEX 01 38:34:67
  TRACK 25 AUDIO
    INDEX 01 40:14:62
  TRACK 26 AUDIO
    INDEX 01 41:58:37
  TRACK 27 AUDIO
    INDEX 01 43:37:60
  TRACK 28 AUDIO
    INDEX 01 45:20:30
  TRACK 29 AUDIO
    INDEX 01 46:46:17
  TRACK 30 AUDIO
    INDEX 01 48:17:57
  TRACK 31 AUDIO
    INDEX 01 50:00:65
  TRACK 32 AUDIO
    INDEX 01 51:39:47
  TRACK 33 AUDIO
    INDEX 01 53:33:65
  TRACK 34 AUDIO
    INDEX 01 55:19:65
  TRACK 35 AUDIO
    INDEX 01 56:27:30
  TRACK 36 AUDIO
    INDEX 01 58:04:65

FILE "filename CD 3.mp3" MP3
  TRACK 01 AUDIO
    INDEX 01 00:00:00
  TRACK 02 AUDIO
    INDEX 01 01:11:15
  TRACK 03 AUDIO
    INDEX 01 02:55:30
  TRACK 04 AUDIO
    INDEX 01 04:32:10
  TRACK 05 AUDIO
    INDEX 01 06:16:35
  TRACK 06 AUDIO
    INDEX 01 08:00:42
  TRACK 07 AUDIO
    INDEX 01 09:44:02
  TRACK 08 AUDIO
    INDEX 01 11:20:10
  TRACK 09 AUDIO
    INDEX 01 13:04:00
  TRACK 10 AUDIO
    INDEX 01 14:47:30
  TRACK 11 AUDIO
    INDEX 01 16:30:62
  TRACK 12 AUDIO
    INDEX 01 18:10:37
  TRACK 13 AUDIO
    INDEX 01 19:53:00
  TRACK 14 AUDIO
    INDEX 01 22:06:10
  TRACK 15 AUDIO
    INDEX 01 23:50:42
  TRACK 16 AUDIO
    INDEX 01 25:30:35
  TRACK 17 AUDIO
    INDEX 01 27:11:42
  TRACK 18 AUDIO
    INDEX 01 28:55:60
  TRACK 19 AUDIO
    INDEX 01 30:38:32
  TRACK 20 AUDIO
    INDEX 01 32:18:72
  TRACK 21 AUDIO
    INDEX 01 34:00:15
  TRACK 22 AUDIO
    INDEX 01 35:40:17
  TRACK 23 AUDIO
    INDEX 01 37:20:67
  TRACK 24 AUDIO
    INDEX 01 38:59:25
  TRACK 25 AUDIO
    INDEX 01 40:38:35
  TRACK 26 AUDIO
    INDEX 01 42:21:00
  TRACK 27 AUDIO
    INDEX 01 44:05:52
  TRACK 28 AUDIO
    INDEX 01 46:00:30
  TRACK 29 AUDIO
    INDEX 01 47:45:17
  TRACK 30 AUDIO
    INDEX 01 50:20:05
  TRACK 31 AUDIO
    INDEX 01 51:57:50
  TRACK 32 AUDIO
    INDEX 01 53:35:27
  TRACK 33 AUDIO
    INDEX 01 55:19:72
  TRACK 34 AUDIO
    INDEX 01 57:37:37
  TRACK 35 AUDIO
    INDEX 01 59:13:35
Wertung: (1)  
Hinzugefügt: 3 March 2010
RSS Feed
RSS Feed
Sprache
Deutsch Englisch Französisch
Mixsuche
Suchbegriff
Genauer Wortlaut
Alle Worte (UND)
Ein Wort (ODER)
Statistik
28765 Mixe eingetragen
27366 Tracklisten
Newsletter
E-Mail
Anmelden
Abmelden
SPONSOREN