Mixkatalog
 Einloggen
Login
Passwort

Grandmix 1988 Hits: 91  

Grandmix 1988


Kurzbeschreibung:
Ben Liebrand präsentiert den Grandmix 1988.
 
Crew/DJ: Ben Liebrand Reihe: Grandmix
Stil: Pop Erscheinungsjahr: 1988
Anzahl Tonträger: 1 Spielzeit: 55:31
Trackliste:
Cue-Informationen:

FILE "filename.mp3" MP3
  TRACK 01 AUDIO
    INDEX 01 00:00:00
  TRACK 02 AUDIO
    INDEX 01 03:53:47
  TRACK 03 AUDIO
    INDEX 01 11:10:05
  TRACK 04 AUDIO
    INDEX 01 17:50:40
  TRACK 05 AUDIO
    INDEX 01 23:07:70
  TRACK 06 AUDIO
    INDEX 01 25:56:50
  TRACK 07 AUDIO
    INDEX 01 31:01:52
  TRACK 08 AUDIO
    INDEX 01 36:06:30
  TRACK 09 AUDIO
    INDEX 01 39:50:22
  TRACK 10 AUDIO
    INDEX 01 47:30:40
Wertung: (1)  
Hinzugefügt: 3 March 2010
RSS Feed
RSS Feed
Sprache
Deutsch Englisch Französisch
Mixsuche
Suchbegriff
Genauer Wortlaut
Alle Worte (UND)
Ein Wort (ODER)
Statistik
36328 Mixe eingetragen
34422 Tracklisten
Newsletter
E-Mail
Anmelden
Abmelden
SPONSOREN