Mixkatalog
 Einloggen
Login
Passwort

Dance 16 Hits: 6  

Dance 16


Kurzbeschreibung:
Royal präsentiert Dance Volume 16, gemixt von R.H. & M.A.I.C.O.
 
Crew/DJ: Royal Reihe: Dance
Stil: Dance Erscheinungsjahr: 2000
CDs: 1 Spielzeit: 70:09
Trackliste:
Cue-Informationen:

FILE "filename.mp3" MP3
  TRACK 01 AUDIO
    INDEX 01 00:00:00
  TRACK 02 AUDIO
    INDEX 01 00:58:62
  TRACK 03 AUDIO
    INDEX 01 02:40:48
  TRACK 04 AUDIO
    INDEX 01 04:17:05
  TRACK 05 AUDIO
    INDEX 01 05:29:27
  TRACK 06 AUDIO
    INDEX 01 06:43:15
  TRACK 07 AUDIO
    INDEX 01 08:17:27
  TRACK 08 AUDIO
    INDEX 01 09:18:57
  TRACK 09 AUDIO
    INDEX 01 11:01:71
  TRACK 10 AUDIO
    INDEX 01 12:48:53
  TRACK 11 AUDIO
    INDEX 01 14:31:74
  TRACK 12 AUDIO
    INDEX 01 16:17:14
  TRACK 13 AUDIO
    INDEX 01 17:30:05
  TRACK 14 AUDIO
    INDEX 01 18:54:71
  TRACK 15 AUDIO
    INDEX 01 20:39:62
  TRACK 16 AUDIO
    INDEX 01 22:01:66
  TRACK 17 AUDIO
    INDEX 01 23:40:52
  TRACK 18 AUDIO
    INDEX 01 25:12:37
  TRACK 19 AUDIO
    INDEX 01 27:09:61
  TRACK 20 AUDIO
    INDEX 01 28:30:23
  TRACK 21 AUDIO
    INDEX 01 30:14:16
  TRACK 22 AUDIO
    INDEX 01 31:36:42
  TRACK 23 AUDIO
    INDEX 01 33:02:32
  TRACK 24 AUDIO
    INDEX 01 34:37:04
  TRACK 25 AUDIO
    INDEX 01 36:36:10
  TRACK 26 AUDIO
    INDEX 01 37:40:72
  TRACK 27 AUDIO
    INDEX 01 38:42:56
  TRACK 28 AUDIO
    INDEX 01 40:45:32
  TRACK 29 AUDIO
    INDEX 01 42:19:26
  TRACK 30 AUDIO
    INDEX 01 43:28:66
  TRACK 31 AUDIO
    INDEX 01 44:41:02
  TRACK 32 AUDIO
    INDEX 01 45:43:47
  TRACK 33 AUDIO
    INDEX 01 47:21:39
  TRACK 34 AUDIO
    INDEX 01 48:55:61
  TRACK 35 AUDIO
    INDEX 01 49:50:51
  TRACK 36 AUDIO
    INDEX 01 51:06:59
  TRACK 37 AUDIO
    INDEX 01 52:13:13
  TRACK 38 AUDIO
    INDEX 01 53:57:17
  TRACK 39 AUDIO
    INDEX 01 55:42:44
  TRACK 40 AUDIO
    INDEX 01 57:37:49
  TRACK 41 AUDIO
    INDEX 01 59:39:45
  TRACK 42 AUDIO
    INDEX 01 61:08:55
  TRACK 43 AUDIO
    INDEX 01 62:55:45
  TRACK 44 AUDIO
    INDEX 01 65:01:22
  TRACK 45 AUDIO
    INDEX 01 67:10:47
  TRACK 46 AUDIO
    INDEX 01 68:56:40
Wertung: (6)  
Hinzugefügt: 26 February 2010
RSS Feed
RSS Feed
Sprache
Deutsch Englisch Französisch
Mixsuche
Suchbegriff
Genauer Wortlaut
Alle Worte (UND)
Ein Wort (ODER)
Statistik
34555 Mixe eingetragen
32680 Tracklisten
Newsletter
E-Mail
Anmelden
Abmelden
SPONSOREN