Mixkatalog
SPONSOREN
 Einloggen
Login
Passwort

Dance 09 Hits: 13  

Dance 09


Kurzbeschreibung:
Royal präsentiert Dance Volume 9.
 
Crew/DJ: Royal Reihe: Dance
Stil: Dance Erscheinungsjahr: 1996
Anzahl Tonträger: 1 Spielzeit: 73:49
Trackliste:
Cue-Informationen:

FILE "filename.mp3" MP3
  TRACK 01 AUDIO
    INDEX 01 00:00:00
  TRACK 02 AUDIO
    INDEX 01 15:31:12
  TRACK 03 AUDIO
    INDEX 01 22:04:25
  TRACK 04 AUDIO
    INDEX 01 37:55:50
  TRACK 05 AUDIO
    INDEX 01 46:30:30
  TRACK 06 AUDIO
    INDEX 01 59:32:62
Wertung: ()  
Hinzugefügt: 26 February 2010
Bewerte als Erster diesen Mix:
RSS Feed
RSS Feed
Sprache
Deutsch Englisch Französisch
Mixsuche
Suchbegriff
Genauer Wortlaut
Alle Worte (UND)
Ein Wort (ODER)
Statistik
36074 Mixe eingetragen
34133 Tracklisten
Newsletter
E-Mail
Anmelden
Abmelden
SPONSOREN