Mixkatalog
 Einloggen
Login
Passwort

Dance 07 Hits: 3  

Dance 07


Kurzbeschreibung:
Royal präsentiert Dance Volume 7.
 
Crew/DJ: Royal Reihe: Dance
Stil: Dance Erscheinungsjahr: 1996
Anzahl Tonträger: 1 Spielzeit: 66:48
Trackliste:
    Soft '95:
  1. The Kelly Family - Roses Of Red
  2. M-People - Search For A Hero
  3. DJ Bobo - There Is A Party
  4. Fun Factory - I Wanna Be With You
  5. Fun Factory - Celebration
    Fast '95:
  6. Alex Party - Don't Give Me Your Life
  7. Celvine Rotane - I Believe
  8. Celvin Rotane - Push Me To The Limit
  9. Corona - Try Me Out
  10. Corona - Baby Baby
  11. Outhere Brothers - La La Hey Hey
  12. La Bouche - Be My Lover
  13. No Mercy - Missing
  14. Culture Beat - Inside Out
  15. Scatman John - Scatman
  16. La Bouche - I Love To Love
  17. Masterboy - Generation Of Love
  18. First Base - Love Is Paradise
  19. Masterboy - Anybody
    Transmission Mix 3:
  20. Celvin Rotane - Push Me To The Limit
  21. Disco Babes - Car Wash
  22. Westbam/Koon/Stephson - Always Music
  23. Sadie - Dedicated To You
  24. Pizzaman - Happiness
  25. Onda Del Futuro - Storia D'Amore
  26. S.O.F. feat. Akiko - House Music
  27. DJ Groovy - Shake It
  28. Divana Mattel - Fashion Girl
  29. E-Type - Russian Lullaba
  30. Rise & Shine - Hungry Anumal
  31. Tom Wilson - Techno Cat
  32. R.M.B. - Experience
  33. Allnighters - Black Is Black
  34. Speedy J. - Pullover
    Royal X-Mas:
  35. Keine Trackliste
    Royal Mix Session feat. Snap:
  36. Keine Trackliste
Cue-Informationen:

FILE "filename.mp3" MP3
  TRACK 01 AUDIO
    INDEX 00 00:00:00
  TRACK 02 AUDIO
    INDEX 01 10:55:55
  TRACK 03 AUDIO
    INDEX 01 28:38:22
  TRACK 04 AUDIO
    INDEX 01 51:07:72
  TRACK 05 AUDIO
    INDEX 01 59:38:12
Wertung: ()   Hinzugefügt: 25 February 2010
Bewerte als Erster diesen Mix:
RSS Feed
RSS Feed
Sprache
Deutsch Englisch Französisch
Mixsuche
Suchbegriff
Genauer Wortlaut
Alle Worte (UND)
Ein Wort (ODER)
Statistik
14805 Mixe eingetragen
14492 Tracklisten
Newsletter
E-Mail
Anmelden
Abmelden
SPONSOREN