Mixkatalog
 Einloggen
Login
Passwort

Dance 07 Hits: 61  

Dance 07


Kurzbeschreibung:
Royal präsentiert Dance Volume 7.
 
Crew/DJ: Royal Reihe: Dance
Stil: Dance Erscheinungsjahr: 1996
Anzahl Tonträger: 1 Spielzeit: 66:48
Trackliste:
Cue-Informationen:

FILE "filename.mp3" MP3
  TRACK 01 AUDIO
    INDEX 00 00:00:00
  TRACK 02 AUDIO
    INDEX 01 10:55:55
  TRACK 03 AUDIO
    INDEX 01 28:38:22
  TRACK 04 AUDIO
    INDEX 01 51:07:72
  TRACK 05 AUDIO
    INDEX 01 59:38:12
Wertung: (1)  
Hinzugefügt: 25 February 2010
RSS Feed
RSS Feed
Sprache
Deutsch Englisch Französisch
Mixsuche
Suchbegriff
Genauer Wortlaut
Alle Worte (UND)
Ein Wort (ODER)
Statistik
12998 Mixe eingetragen
12706 Tracklisten
Newsletter
E-Mail
Anmelden
Abmelden
SPONSOREN