Mixkatalog
 Einloggen
Login
Passwort

Fetenmix 2 Hits: 147  

Fetenmix 2


Kurzbeschreibung:
SWG präsentiert den Fetenmix Volume 2. 80 Party-Klassiker im Megamix, gemixt von DJ Deep.
 
Crew/DJ: SWG Reihe: Fetenmix
Stil: Party Erscheinungsjahr: 2003
Anzahl Tonträger: 2 Spielzeit: 142:30
Trackliste:
Cue-Informationen:

FILE "filename CD 1.mp3" MP3
  TRACK 01 AUDIO
    INDEX 01 00:00:00
  TRACK 02 AUDIO
    INDEX 01 01:22:63
  TRACK 03 AUDIO
    INDEX 01 02:35:07
  TRACK 04 AUDIO
    INDEX 01 03:36:70
  TRACK 05 AUDIO
    INDEX 01 04:53:26
  TRACK 06 AUDIO
    INDEX 01 05:39:13
  TRACK 07 AUDIO
    INDEX 01 09:11:21
  TRACK 08 AUDIO
    INDEX 01 10:13:18
  TRACK 09 AUDIO
    INDEX 01 12:00:27
  TRACK 10 AUDIO
    INDEX 01 12:41:48
  TRACK 11 AUDIO
    INDEX 01 14:03:30
  TRACK 12 AUDIO
    INDEX 01 16:08:04
  TRACK 13 AUDIO
    INDEX 01 17:29:35
  TRACK 14 AUDIO
    INDEX 01 18:40:42
  TRACK 15 AUDIO
    INDEX 01 22:56:31
  TRACK 16 AUDIO
    INDEX 01 24:19:65
  TRACK 17 AUDIO
    INDEX 01 26:31:21
  TRACK 18 AUDIO
    INDEX 01 27:46:34
  TRACK 19 AUDIO
    INDEX 01 28:58:41
  TRACK 20 AUDIO
    INDEX 01 30:21:66
  TRACK 21 AUDIO
    INDEX 01 31:36:68
  TRACK 22 AUDIO
    INDEX 01 32:15:58
  TRACK 23 AUDIO
    INDEX 01 32:53:54
  TRACK 24 AUDIO
    INDEX 01 33:43:26
  TRACK 25 AUDIO
    INDEX 01 35:02:25
  TRACK 26 AUDIO
    INDEX 01 35:42:41
  TRACK 27 AUDIO
    INDEX 01 36:29:00
  TRACK 28 AUDIO
    INDEX 01 37:42:23
  TRACK 29 AUDIO
    INDEX 01 39:10:39
  TRACK 30 AUDIO
    INDEX 01 39:58:12
  TRACK 31 AUDIO
    INDEX 01 41:06:41
  TRACK 32 AUDIO
    INDEX 01 42:18:49
  TRACK 33 AUDIO
    INDEX 01 43:19:24
  TRACK 34 AUDIO
    INDEX 01 44:25:09
  TRACK 35 AUDIO
    INDEX 01 45:44:61
  TRACK 36 AUDIO
    INDEX 01 46:48:63
  TRACK 37 AUDIO
    INDEX 01 48:04:50
  TRACK 38 AUDIO
    INDEX 01 49:09:32
  TRACK 39 AUDIO
    INDEX 01 49:53:65
  TRACK 40 AUDIO
    INDEX 01 51:28:32
  TRACK 41 AUDIO
    INDEX 01 52:42:36
  TRACK 42 AUDIO
    INDEX 01 53:42:33

FILE "filename CD 2.mp3" MP3
  TRACK 01 AUDIO
    INDEX 01 00:00:00
  TRACK 02 AUDIO
    INDEX 01 01:05:31
  TRACK 03 AUDIO
    INDEX 01 06:53:16
  TRACK 04 AUDIO
    INDEX 01 08:01:48
  TRACK 05 AUDIO
    INDEX 01 09:15:31
  TRACK 06 AUDIO
    INDEX 01 10:09:29
  TRACK 07 AUDIO
    INDEX 01 11:21:25
  TRACK 08 AUDIO
    INDEX 01 12:06:23
  TRACK 09 AUDIO
    INDEX 01 13:12:04
  TRACK 10 AUDIO
    INDEX 01 13:55:68
  TRACK 11 AUDIO
    INDEX 01 14:48:00
  TRACK 12 AUDIO
    INDEX 01 15:45:65
  TRACK 13 AUDIO
    INDEX 01 19:23:52
  TRACK 14 AUDIO
    INDEX 01 20:22:20
  TRACK 15 AUDIO
    INDEX 01 21:04:69
  TRACK 16 AUDIO
    INDEX 01 22:16:00
  TRACK 17 AUDIO
    INDEX 01 23:29:62
  TRACK 18 AUDIO
    INDEX 01 24:32:59
  TRACK 19 AUDIO
    INDEX 01 25:40:29
  TRACK 20 AUDIO
    INDEX 01 26:36:08
  TRACK 21 AUDIO
    INDEX 01 28:15:07
  TRACK 22 AUDIO
    INDEX 01 29:17:59
  TRACK 23 AUDIO
    INDEX 01 30:32:39
  TRACK 24 AUDIO
    INDEX 01 31:39:18
  TRACK 25 AUDIO
    INDEX 01 32:27:71
  TRACK 26 AUDIO
    INDEX 01 33:21:70
  TRACK 27 AUDIO
    INDEX 01 34:06:42
  TRACK 28 AUDIO
    INDEX 01 35:11:39
  TRACK 29 AUDIO
    INDEX 01 36:03:26
  TRACK 30 AUDIO
    INDEX 01 37:09:39
  TRACK 31 AUDIO
    INDEX 01 38:22:42
  TRACK 32 AUDIO
    INDEX 01 39:19:62
  TRACK 33 AUDIO
    INDEX 01 40:12:25
  TRACK 34 AUDIO
    INDEX 01 41:17:32
  TRACK 35 AUDIO
    INDEX 01 42:12:37
  TRACK 36 AUDIO
    INDEX 01 43:31:10
  TRACK 37 AUDIO
    INDEX 01 44:19:36
  TRACK 38 AUDIO
    INDEX 01 45:31:01
  TRACK 39 AUDIO
    INDEX 01 46:34:05
  TRACK 40 AUDIO
    INDEX 01 47:19:63
  TRACK 41 AUDIO
    INDEX 01 49:09:67
Wertung: (1)  
Hinzugefügt: 21 February 2010
RSS Feed
RSS Feed
Sprache
Deutsch Englisch Französisch
Mixsuche
Suchbegriff
Genauer Wortlaut
Alle Worte (UND)
Ein Wort (ODER)
Statistik
36310 Mixe eingetragen
34359 Tracklisten
Newsletter
E-Mail
Anmelden
Abmelden
SPONSOREN